WhatsApp: +400000000
E-mail: faq@sitename.com
Всем привет! Сегодня я расскажу об еще одном элементе в составе моего умного дома от Сяоми. Это камера с возможностью обозревать 360 градусов пространства, благодаря подвижной голове. Как всегда в технике Сяоми, неплохое качество за более-менее вменяемые деньги. За подробностями под кат.


Упаковка и комплектация

Камера приходит, как и практически весь товар от Известной Фирмы, в белой коробке, на коробке нарисована сама камера

Сзади мордочка Mijia и Mi

также написаны характеристики. Как обычнол. смесь английского и иероглифоф.

Открываем, внутри нас ждет упакованная в дополнительные картонки камера

Карточка c QR кодом и инструкция




Есть еще одна коробочка.

В ней есть крепление на стену.

блок питания с китайской вилкой. На выход 5В 2А

Двухметровый кабель USB-microUSB

Вот и вся комплектация

Внешний вид

Камера белого цвета Есть основание голова и черный «глаз»

На основании логотип MiJia

Снизу основания вход microUSB для зарядки и кнопка RESET

Сзади у камеры есть динамик

Снизу основания есть место под установку на комплектный кронштейн и 4 резиновые ножки

Линза камеры находится в голове, черного цвета

Тут же вокруг есть светодиоды подсветки

Если повернуть камеру вверх, то будет виден слот под карту microSD

Замерил, сколько «кушает» камера
Без подсветки 

С подсветкой

Перейдем к ПО камеры

ПО

Камеры Сяоми «из коробки» управляются при помощи своего родного приложения MiHome. Исторически я советую пользоваться версией русифицированной от Opel с 4PDA
Это дает нам русский язык. 

Скриншоты приложения спрячу под спойлер для компактности

Дополнительная информация
Добавляем камеру в приложении

в приложении от Опеля все по-русски и понятно. Не забываем поставить флажок

Камера дает выбрать WiFi в которой она будет работать

далее рисует скриншот, который нужно дать отсканировать самой камерой

появляется Камера, ее можно перенести в любую комнату по вашему желанию

приложение просит обновить ПО камеры

при первом подключении просит подтвердить, что мы самая быстро читающая страна

Ну и легкое руководство по работе
Дальше у нас открывается дисплей управления камерой

Качество видео можно выбирать в соответствии с вашим интернетом низкое, высокое и авто.

Можно войти в режим обнаружения движения
Выбрать время срабатывания защиты
Просмотреть записанное с карты

Настроить срабатывание

залезть в настройки, там особо ничего сложного

Есть возможность посмотреть сделанные с камеры фото и поделиться ими в китайских соцсетях :)

Когда камера обнаруживает движение, она посылает уведомления на смартфон

при этом уведомления стали сыпаться нормально, где-то были проблемы у MiHome, починили наверное
переходим в приложение по уведомлению и видим сработку камеры по движению

Больше про По особо рассказывать нечего, все просто и банально. Камера не умеет лить в RTSP поток и не имеет ПО для ПК, ее предназначение именно среду умного дома Сяоми. 



Осталось посмотреть примеры видео и фото

видео пишет в формате mp4, вот его свойства
Дополнительная информация
General
Complete name: F:\mysku\камера сяоми 720\Камера 720\27M11S_1528298831.mp4
Format: MPEG-4
Format profile: Base Media / Version 2
Codec ID: mp42
File size: 5.80 MiB
Duration: 1mn 2s
Overall bit rate: 782 Kbps
Encoded date: UTC 2018-06-06 15:27:13
Tagged date: UTC 2018-06-06 15:28:14

Video
ID: 2
Format: AVC
Format/Info: Advanced Video Codec
Format profile: High@L4.0
Format settings, CABAC: Yes
Format settings, ReFrames: 1 frame
Format settings, GOP: M=1, N=30
Codec ID: avc1
Codec ID/Info: Advanced Video Coding
Duration: 1mn 0s
Bit rate mode: Variable
Bit rate: 732 Kbps
Width: 1 280 pixels
Height: 720 pixels
Display aspect ratio: 16:9
Frame rate mode: Constant
Frame rate: 15.000 fps
Color space: YUV
Chroma subsampling: 4:2:0
Bit depth: 8 bits
Scan type: Progressive
Bits/(Pixel*Frame): 0.053
Stream size: 5.32 MiB (92%)
Encoded date: UTC 2018-06-06 15:27:13
Tagged date: UTC 2018-06-06 15:28:14

Audio
ID: 1
Format: ADPCM
Format profile: A-Law
Codec ID: alaw
Duration: 1mn 2s
Bit rate mode: Constant
Bit rate: 64.0 Kbps
Channel(s): 1 channel
Sampling rate: 8 000 Hz
Bit depth: 16 bits
Stream size: 486 KiB (8%)
Encoded date: UTC 2018-06-06 15:27:13
Tagged date: UTC 2018-06-06 15:28:14




Качество картинки в нашем веке, конечно, оставляет желать лучшего, дафанг, по крайней мере, уделывает ее и по цене функционалу и картинке. а в целом камера качественная. 
спасибо за внимание, пока пока.

Информация
Посетители, находящиеся в группе Гости, не могут оставлять комментарии к данной публикации.

Категории

Облако популярных тегов

3D ПРИНТЕРЫ И 3D ПЕЧАТЬ AERMOO.COM AMAZON.COM ASMODUS.COM BANGGOOD.COM BUYBEST.COM CAFAGO.COM DD4.COM DRESSLILY.COM EVERZON.COM FASTTECH.COM FENIXLIGHT.COM GEARBEST.COM GEEKBUYING.COM HEAVENGIFTS.COM ITEAD.CC JOYBUY.COM LIGHTINTHEBOX.COM RCMOMENT.COM ROSEGAL.COM TOMTOP.COM TVC-MALL.COM USB КАМЕРЫ АВТОМОБИЛИСТАМ АККУМУЛЯТОРЫ И БАТАРЕЙКИ АКСЕССУАРЫ Аудиотехника ВЕРТОЛЁТЫ И МУЛЬТИКОПТЕРЫ ВИДЕОТЕХНИКА ДЛЯ КУХНИ ЖЕНСКАЯ ОДЕЖДА ЗАРЯДНЫЕ УСТРОЙСТВА ИГРУШКИ И ПОДАРКИ ИЗМЕРИТЕЛЬНЫЙ ИНСТРУМЕНТ ИНСТРУМЕНТЫ КАБЕЛИ КАРТЫ ПАМЯТИ КОМПЛЕКТУЮЩИЕ КОМПЛЕКТУЮЩИЕ И АКСЕССУАРЫ КОМПЬЮТЕРЫ И ПЛАНШЕТЫ КРАСОТА И ЗДОРОВЬЕ МАШИНКИ МИКРОСКОПЫ МОБИЛЬНЫЕ ТЕЛЕФОНЫ МУЖСКАЯ ОДЕЖДА НАУШНИКИ И ГАРНИТУРЫ НОЖИ НОСИТЕЛИ ИНФОРМАЦИИ: ФЛЕШ-ПАМЯТЬ ОТДЫХ ЗА ГОРОДОМ ОХОТЫ И ТУРИЗМА ОЧКИ ПОРТАТИВНЫЕ КОЛОНКИ ПРИНАДЛЕЖНОСТИ ДЛЯ РЫБАЛКИ РАДИОТОВАРЫ РАДИОУПРАВЛЯЕМЫЕ МОДЕЛИ РЕГИСТРАТОРЫ РУЧНОЙ ИНСТРУМЕНТ СДЕЛАНО РУКАМИ СЕТЕВОЕ ОБОРУДОВАНИЕ СКЛАДНЫЕ НОЖИ СПОРТ И ЗДОРОВЬЕ СУМКИ И АКСЕССУАРЫ ТЕЛЕФОНЫ И СМАРТФОНЫ ТОВАРЫ ДЛЯ ДОМА И ДАЧИ ТОВАРЫ ПРОФЕССИОНАЛЬНОГО ИСПОЛЬЗОВАНИЯ ФЛЕШКИ ФОНАРИКИ И СВЕТОДИОДНЫЕ ЛАМПЫ ФОТОТЕХНИКА ХОББИ ЧАСЫ И ТАЙМЕРЫ ШТАТИВЫ ШУРУПОВЕРТЫ ЭЛЕКТРОННЫЕ СИГАРЕТЫ